4 Blocks S01 Complete 720p AMZN WEB-DL [AR Sub]

DOWNLOAD ( MAGNET LINK ) DOWNLOAD Watch Online

Posted by SisouNet •4 on June 13, 2018 in Series » Misc

Size: 2.53 GB , Seeds: 1 , Peers: 2 ( Updated June 19, 2018 )

* Download via Magnet Link , * To download files you need a Bittorrent Client , * How to download torrents from Bit Torrent Scene?

Scrape History ( seeds + peers )

Internal Files

4 Blocks S01 Complete 720p AMZN WEB-DL [AR.Sub]
w4 Blocks 2017.w.jpg   1.62 MB
4.Blocks.S01E03.Ibrahim.720p.AMZN.WEB-DL.x264.mp4   374.14 MB
4.Blocks.S01E01.Brothers.720p.AMZN.WEB-DL.x264.mp4   415.6 MB
4.Blocks.S01E05.Powerless.720p.AMZN.WEB-DL.x264.mp4   424.23 MB
4.Blocks.S01E04.Betrayal.720p.AMZN.WEB-DL.x264.mp4   439.65 MB
4.Blocks.S01E06.Dead.Man.Walking.720p.AMZN.WEB-DL.x264.Final.mp4   454.17 MB
4.Blocks.S01E02.False.Nine.720p.AMZN.WEB-DL.x264.mp4   485.43 MB

Hash Code

054237fd5e80d66d4b2ec94ec703020457b0b5e4

Description

4 Blocks S01 Complete 720p AMZN WEB-DL [AR Sub]

SCREENSHOT

4 Blocks S01 Complete 720p AMZN WEB-DL [AR Sub]


General
Complete name : 4.Blocks.S01E01.Brothers.720p.AMZN.WEB-DL.x264.mp4
Format : MPEG-4
Format profile : Base Media
Codec ID : isom (isom/iso2/avc1/mp41)
File size : 416 MiB
Duration : 50 min 53 s
Overall bit rate : 1 142 kb/s
Movie name : 4 Blocks S01 E01 - HEVC [BRSHNKV]
Recorded date : 0
Writing application : Lavf56.36.100

Video
ID : 1
Format : AVC
Format/Info : Advanced Video Codec
Format profile : [email protected]
Format settings : 2 Ref Frames
Format settings, CABAC : No
Format settings, ReFrames : 2 frames
Codec ID : avc1
Codec ID/Info : Advanced Video Coding
Duration : 50 min 52 s
Bit rate : 1 024 kb/s
Width : 1 280 pixels
Height : 720 pixels
Display aspect ratio : 16:9
Frame rate mode : Constant
Frame rate : 25.000 FPS
Color space : YUV
Chroma subsampling : 4:2:0
Bit depth : 8 bits
Scan type : Progressive
Bits/(Pixel*Frame) : 0.044
Stream size : 367 MiB (88%)
Writing library : x264 core 148 r2579 73ae2d1
Encoding settings : cabac=0 / ref=2 / deblock=1:0:0 / analyse=0x1:0x111 / me=umh / subme=6 / psy=1 / psy_rd=1.00:0.00 / mixed_ref=1 / me_range=16 / chroma_me=1 / trellis=0 / 8x8dct=0 / cqm=0 / deadzone=21,11 / fast_pskip=1 / chroma_qp_offset=-2 / threads=4 / lookahead_threads=1 / sliced_threads=0 / nr=0 / decimate=1 / interlaced=0 / bluray_compat=0 / constrained_intra=0 / bframes=0 / weightp=0 / keyint=250 / keyint_min=25 / scenecut=40 / intra_refresh=0 / rc_lookahead=40 / rc=abr / mbtree=1 / bitrate=1024 / ratetol=1.0 / qcomp=0.60 / qpmin=0 / qpmax=69 / qpstep=4 / ip_ratio=1.40 / aq=1:1.00

Audio
ID : 2
Format : AAC
Format/Info : Advanced Audio Codec
Format profile : LC
Codec ID : mp4a-40-2
Duration : 50 min 53 s
Duration_LastFrame : -18 ms
Bit rate mode : Constant
Bit rate : 128 kb/s
Channel(s) : 2 channels
Channel positions : Front: L R
Sampling rate : 44.1 kHz
Frame rate : 43.066 FPS (1024 SPF)
Compression mode : Lossy
Stream size : 46.5 MiB (11%)
Language : German
Default : Yes
Alternate group : 1

Comments

You must log in to add a comment.

Embed Code

Sharing Widget

Top Series ( auto generated report )

FILENAME SIZE SEEDS PEERS ADDED UPD
[i] Marvels.Cloak.and.Dagger.S01E03.WEB.x264-TBS[ettv] 326.2 MB 2017 421 5 days 4 days
[i] Westworld.S02E09.720p.WEB.H264-DEFLATE [rarbg] 1.8 GB 1919 546 2 days 2 days
[i] RuPauls.Drag.Race.S10E12.WOWRip.1080p-WEBRip 2 GB 1401 386 4 days 4 days
[i] Supergirl.S03E23.HDTV.x264-KILLERS[ettv] 285.8 MB 969 349 1 day 19 hours
[i] Condor.S01E02.WEBRip.x264-PBS[ettv] 300.21 MB 857 130 5 days 4 days
[i] Last.Week.Tonight.With.John.Oliver.S05E15.720p.HDTV.X264-UAV [rarbg] 701.5 MB 845 134 2 days 2 days
[i] Westworld.S02E09.1080p.WEB.H264-DEFLATE [rarbg] 5.3 GB 824 423 2 days 2 days
[i] Elementary.S06E08.720p.HDTV.X264-DIMENSION [rarbg] 776.7 MB 477 56 1 day 1 day
[i] 12.Monkeys.S04E01.HDTV.x264-KILLERS[ettv] 256.51 MB 473 58 4 days 3 days
[i] Humans.S03E05.HDTV.x264-MTB[ettv] 232.26 MB 455 67 5 days 4 days