Baaghi 2 2018 Hindi 1080p WEB-DL x264 [MW]

Posted by moviefreak •1678 on June 13, 2018 in Movies » Action , verified torrent

Size: 2.18 GB , Seeds: 23 , Peers: 23 ( Updated June 19, 2018 - Refresh )

* Download via Magnet Link , * To download files you need a Bittorrent Client , * How to download torrents from Bit Torrent Scene?

Scrape History ( seeds + peers )

Internal Files

Baaghi 2 2018 Hindi 1080p WEB-DL x264 [MW]
Baaghi 2 2018 Hindi 1080p WEB-DL x264 [MW].mkv   2.18 GB

Hash Code

a5f21bf4bc607624fb10b44ea10fcaeca39cfef5

Description



SCREENSHOT

General
Format : Matroska
Format version : Version 4 / Version 2
File size : 2.18 GiB
Duration : 2 h 14 min
Overall bit rate : 2 318 kb/s

Video
ID : 1
Format : AVC
Format/Info : Advanced Video Codec
Format profile : [email protected]
Format settings : CABAC / 4 Ref Frames
Format settings, CABAC : Yes
Format settings, RefFrames : 4 frames
Codec ID : V_MPEG4/ISO/AVC
Duration : 2 h 14 min
Bit rate : 2 200 kb/s
Width : 1 920 pixels
Height : 804 pixels
Display aspect ratio : 2.40:1
Frame rate mode : Constant
Frame rate : 25.000 FPS
Color space : YUV
Chroma subsampling : 4:2:0
Bit depth : 8 bits
Scan type : Progressive
Bits/(Pixel*Frame) : 0.057
Stream size : 2.06 GiB (94%)
Writing library : x264 core 155 r2901 7d0ff22
Default : Yes
Forced : No

Audio
ID : 2
Format : AAC
Format/Info : Advanced Audio Codec
Format profile : LC
Codec ID : A_AAC-2
Duration : 2 h 14 min
Bit rate : 128 kb/s
Channel(s) : 2 channels
Channel positions : Front: L R
Sampling rate : 48.0 kHz
Frame rate : 46.875 FPS (1024 SPF)
Compression mode : Lossy
Stream size : 123 MiB (6%)
Default : Yes
Forced : No






http://pichub.site/image/YdKcJ
http://pichub.site/image/YdNKr
http://pichub.site/image/Ydm9h
http://pichub.site/image/YdGRj
http://pichub.site/image/YdxJQ

Trackers

Refresh Leechers : Updated June 19, 2018

1. udp://tracker.coppersurfer.tk:6969/announce

2. udp://tracker.pirateparty.gr:6969/announce

3. udp://tracker.coppersurfer.tk:6969/announce

4. udp://tracker.leechers-paradise.org:6969/announce

5. udp://eddie4.nl:6969/announce

6. udp://tracker.tiny-vps.com:6969/announce

7. udp://9.rarbg.me:2720/announce

8. udp://9.rarbg.to:2740/announce

9. udp://public.popcorn-tracker.org:6969/announce

10. udp://open.stealth.si:80/announce

11. udp://tracker.vanitycore.co:6969/announce

12. udp://tracker.opentrackr.org:1337/announce

13. udp://bt.firebit.co.uk:6969/announce

14. udp://shadowshq.yi.org:6969/announce

Comments

You must log in to add a comment.

Embed Code

Sharing Widget

Related torrents

FILENAME SIZE SEEDS PEERS ADDED UPD
[i] downloadhub in Baaghi 2 (2018) Hindi 720p V2 HDRip x264 AAC ESubs - Downloadhub
posted by downloadhub in Movies - Action
1.13 GB 52 26 1 week 5 days
[i] Baaghi 2 2018 Hindi 720p WEB-DL x264 [MW]
posted by moviefreak in Movies - Action
1.38 GB 17 11 1 week 4 days
[i] Baaghi (2018) UntoucheD WEBHD 720p Hindi H 264 AAC - LatestHDMovies mkv
posted by LatestHDMovies in Movies - Thriller
1.58 GB 5 2 1 week 5 days

Top Movies ( auto generated report )

FILENAME SIZE SEEDS PEERS ADDED UPD
[i] Rampage (2018) [WEBRip] [720p] [YTS AM] 924.3 MB 12877 8865 3 days 6 hours
[i] Rampage (2018) [WEBRip] [1080p] [YTS AM] 1.73 GB 11810 9729 3 days 2 days
[i] Ready Player One (2018) [WEBRip] [1080p] [YTS AM] 2.24 GB 10162 5063 3 days 1 day
[i] Ready Player One (2018) [WEBRip] [720p] [YTS AM] 1.16 GB 9167 6479 3 days 2 days
[i] Blockers (2018) [WEBRip] [720p] [YTS AM] 861.94 MB 3817 2346 1 day 20 hours
[i] Life of the Party (2018) [WEBRip] [720p] [YTS AM] 886.77 MB 3245 2104 3 days 2 days
[i] Isle of Dogs (2018) [WEBRip] [1080p] [YTS AM] 1.55 GB 2561 854 1 day 20 hours
[i] Blockers (2018) [WEBRip] [1080p] [YTS AM] 1.62 GB 2549 1065 1 day 20 hours
[i] The Death of Superman (2018) [WEBRip] [720p] [YTS AM] 690.36 MB 2300 1288 3 days 2 days
[i] Beirut (2018) [WEBRip] [720p] [YTS AM] 929.6 MB 2164 1197 5 days 4 days