Black Panther (2018) 1080p Dual Audio BluRay 10Bit x265 HEVC [Hindi DD5.1(384kbps)-English 8CH] ESubs Jitu KartiKing

Posted on June 13, 2018 in Movies » Misc

Size: 2.9 GB , Seeds: 1 , Peers: 1 ( Updated June 13, 2018 - Refresh )

* Download via Magnet Link , * To download files you need a Bittorrent Client , * How to download torrents from Bit Torrent Scene?

Scrape History ( seeds + peers )

Internal Files

Black Panther (2018) 1080p Dual Audio BluRay 10Bit x265 HEVC [Hindi DD5.1(384kbps)-English 8CH] ESubs Jitu KartiKing
Black Panther   2018) 1080p Dual Audio BluRay 10Bit x265 HEVC [Hindi DD5.1(384kbps)-English 8CH] ESubs JK.mkv (2.9 GB

Mediainfo.txt   6.6 KB

Read Me [IMPORTANT].txt   0.2 KB

[SAMPLE] Black Panther   2018) 10Bit x265 HEVC Jitu KartiKing.mkv (17.0 MB

Hash Code

77cebda2846ea8a74b5f213a1d9bcb0465abd5ab

Description

Black Panther (2018) 1080p Dual Audio BluRay 10Bit x265 HEVC [Hindi DD5.1(384kbps)-English 8CH] ESubs Jitu KartiKing Movies.DigitalMaza.Org 2.8GB

SCREENSHOT

SCREENSHOT

INFO :-


Best Available Hindi Audio :)


For Direct Download Links ~ Visit :- Movies.DigitalMaza.Org

For Movies Tv Shows News Updates, Trailers & Reviews ~
Join Filmy Thugs :-

facebook.com/groups/filmythugs
facebook.com/filmythugs1
instagram.com/filmythugs
t.me/FilmyThugs

Movie Encoded By ~ Jitu (Special Thanks)


Mediainfo :-


General

Black Panther (2018) 1080p Dual Audio BluRay 10Bit x265 HEVC [Hindi DD5.1(384kbps)-English 8CH] ESubs JK.mkv

Format : Matroska

Format version : Version 4 / Version 2

File size : 2.87 GiB

Duration : 2 h 14 min

Overall bit rate : 3 057 kb/s

Encoded date : UTC 2018-06-13 10:35:40

Writing application : mkvmerge v20.0.0 ('I Am The Sun') 32-bit

Writing library : libebml v1.3.5 + libmatroska v1.4.8


Video

ID : 1

Format : HEVC

Format/Info : High Efficiency Video Coding

Format profile : Main [email protected]@Main

Codec ID : V_MPEGH/ISO/HEVC

Duration : 2 h 14 min

Bit rate : 2 369 kb/s

Width : 1 920 pixels

Height : 808 pixels

Display aspect ratio : 2.40:1

Frame rate mode : Constant

Frame rate : 23.976 (24000/1001) FPS

Color space : YUV

Chroma subsampling : 4:2:0

Bit depth : 10 bits

Bits/(Pixel*Frame) : 0.064

Stream size : 2.23 GiB (77%)

Default : Yes

Forced : No


Audio #1

ID : 2

Format : AC-3

Format/Info : Audio Coding 3

Codec ID : A_AC3

Duration : 2 h 14 min

Bit rate mode : Constant

Bit rate : 384 kb/s

Channel(s) : 6 channels

Channel positions : Front: L C R, Side: L R, LFE

Sampling rate : 48.0 kHz

Frame rate : 31.250 FPS (1536 SPF)

Bit depth : 16 bits

Compression mode : Lossy

Delay relative to video : 1 s 0 ms

Stream size : 370 MiB (13%)

Language : Hindi

Service kind : Complete Main

Default : Yes

Forced : Yes


Audio #2

ID : 3

Format : AAC

Format/Info : Advanced Audio Codec

Format profile : HE-AAC / LC

Format settings : Explicit

Codec ID : A_AAC-2

Duration : 2 h 14 min

Bit rate : 302 kb/s

Channel(s) : 7 channels

Channel(s)_Original : 8 channels

Channel positions : Front: L C R, Side: L R, Back: L R, LFE

Sampling rate : 48.0 kHz / 24.0 kHz

Frame rate : 23.438 FPS (1024 SPF)

Compression mode : Lossy

Delay relative to video : 31 ms

Stream size : 290 MiB (10%)

Language : English

Default : No

Forced : No


Text #1

ID : 4

Format : UTF-8

Codec ID : S_TEXT/UTF8

Codec ID/Info : UTF-8 Plain Text

Duration : 2 h 14 min

Bit rate : 42 b/s

Count of elements : 1575

Stream size : 41.5 KiB (0%)

Language : English

Default : No

Forced : No


Text #2

ID : 5

Format : UTF-8

Codec ID : S_TEXT/UTF8

Codec ID/Info : UTF-8 Plain Text

Duration : 2 h 14 min

Bit rate : 49 b/s

Count of elements : 1835

Stream size : 48.2 KiB (0%)

Language : English

Default : Yes

Forced : Yes


Menu

00:00:00.000 : :Chapter 1

00:06:56.400 : :Chapter 2

00:12:03.000 : :Chapter 3

00:19:12.400 : :Chapter 4

00:28:33.200 : :Chapter 5

00:33:11.800 : :Chapter 6

00:40:57.600 : :Chapter 7

00:48:34.200 : :Chapter 8

00:53:46.200 : :Chapter 9

01:01:57.400 : :Chapter 10

01:08:33.200 : :Chapter 11

01:16:46.800 : :Chapter 12

01:22:24.200 : :Chapter 13

01:31:21.600 : :Chapter 14

01:41:15.400 : :Chapter 15

01:50:56.800 : :Chapter 16

01:59:17.200 : :Chapter 17

02:02:44.000 : :Chapter 18



SCREENSHOTS :-


SCREENSHOT
SCREENSHOT
SCREENSHOT
SCREENSHOT


KartiKing

For Movies Tv Shows News Updates, Trailers & Reviews ~
Join Filmy Thugs :-

FB Group ~

facebook.com/groups/filmythugs
FB Page ~

facebook.com/filmythugs1
Instagram ~

instagram.com/filmythugs
Telegram ~

t.me/FilmyThugs

SCREENSHOT

SCREENSHOT


Torrent location

http://www.1337x.to/torrent/3052602/Black-Panther-2018-1080p-Dual-Audio-BluRay-10Bit-x265-HEVC-Hindi-DD5-1-384kbps-English-8CH-ESubs-Jitu-KartiKing/

Trackers

Refresh Leechers : Updated June 13, 2018

1. udp://9.rarbg.com:2710/announce

2. udp://tracker.opentrackr.org:1337/announce

3. udp://tracker.pirateparty.gr:6969/announce

4. udp://tracker.leechers-paradise.org:6969/announce

5. udp://tracker.coppersurfer.tk:6969/announce

6. udp://tracker.zer0day.to:1337/announce

Comments

You must log in to add a comment.

Embed Code

Sharing Widget

Related torrents

FILENAME SIZE SEEDS PEERS ADDED UPD
[i] Black Panther 2018 1080p BluRay x264 Dual Audio [Hindi DD 2 0 - English DD 5 1] ESub [MW]
posted by moviefreak in Movies - Action
2.59 GB 98 42 1 month 2 weeks
[i] Black Panther 2018 1080p BluRay x264 Dual Audio [Hindi ORG DD 5 1 - English DD 5 1] ESub [MW]
posted by moviefreak in Movies - Action
3.06 GB 32 23 1 week 6 days

Top Movies ( auto generated report )

FILENAME SIZE SEEDS PEERS ADDED UPD
[i] Rampage (2018) [WEBRip] [720p] [YTS AM] 924.3 MB 12877 8865 3 days 6 hours
[i] Rampage (2018) [WEBRip] [1080p] [YTS AM] 1.73 GB 11810 9729 3 days 2 days
[i] Ready Player One (2018) [WEBRip] [1080p] [YTS AM] 2.24 GB 10162 5063 3 days 1 day
[i] Ready Player One (2018) [WEBRip] [720p] [YTS AM] 1.16 GB 9167 6479 3 days 2 days
[i] Blockers (2018) [WEBRip] [720p] [YTS AM] 861.94 MB 3817 2346 1 day 20 hours
[i] Life of the Party (2018) [WEBRip] [720p] [YTS AM] 886.77 MB 3245 2104 3 days 2 days
[i] Isle of Dogs (2018) [WEBRip] [1080p] [YTS AM] 1.55 GB 2561 854 1 day 20 hours
[i] Blockers (2018) [WEBRip] [1080p] [YTS AM] 1.62 GB 2549 1065 1 day 20 hours
[i] The Death of Superman (2018) [WEBRip] [720p] [YTS AM] 690.36 MB 2300 1288 3 days 2 days
[i] Beirut (2018) [WEBRip] [720p] [YTS AM] 929.6 MB 2164 1197 5 days 4 days