Kuttanadan Marpappa (2018) Malayalam - 720p - DVDRip - x264 - 1.4GB - AAC 5.1 - ESub - MovCr

Posted on June 13, 2018 in Movies » Misc

Size: 1.4 GB , Seeds: 1 , Peers: 16 ( Updated June 13, 2018 - Refresh )

* Download via Magnet Link , * To download files you need a Bittorrent Client , * How to download torrents from Bit Torrent Scene?

Scrape History ( seeds + peers )

Internal Files

Kuttanadan Marpappa (2018) Malayalam - 720p - DVDRip - x264 - 1.4GB - AAC 5.1 - ESub - MovCr
[MovCr.com] - Kuttanadan Marpappa   2018) Malayalam - 720p - DVDRip - x264 - 1.4GB - AAC 5.1 - ESub - MovCr.mkv (1.4 GB

Hash Code

551b105a758017524f5b41247b0c519010697d2c

Description



Kuttanadan Marpappa (2018) Malayalam - 720p - DVDRip - x264 - 1.4GB - AAC 5.1 - ESub - MovCr
SCREENSHOT

Video

ID : 1

Format : AVC

Format/Info : Advanced Video Codec

Format profile : [email protected]
Format settings, CABAC : Yes

Format settings, ReFrames : 4 frames

Codec ID : V_MPEG4/ISO/AVC

Duration : 2 h 19 min

Bit rate : 1 303 kb/s

Width : 1 280 pixels

Height : 544 pixels

Display aspect ratio : 2.35:1

Frame rate mode : Constant

Frame rate : 23.976 (24000/1001) FPS

Color space : YUV

Chroma subsampling : 4:2:0

Bit depth : 8 bits

Scan type : Progressive

Bits/(Pixel*Frame) : 0.078

Stream size : 1.27 GiB (93%)

Title : www.MovCr.com

Writing library : x264 core 155 r2893 b00bcaf

Encoding settings : cabac=1 / ref=3 / deblock=1:0:0 / analyse=0x1:0x111 / me=hex / subme=7 / psy=1 / psy_rd=1.00:0.00 / mixed_ref=1 / me_range=16 / chroma_me=1 / trellis=1 / 8x8dct=0 / cqm=0 / deadzone=21,11 / fast_pskip=1 / chroma_qp_offset=-2 / threads=12 / lookahead_threads=2 / sliced_threads=0 / nr=0 / decimate=1 / interlaced=0 / bluray_compat=0 / constrained_intra=0 / bframes=3 / b_pyramid=2 / b_adapt=1 / b_bias=0 / direct=1 / weightb=1 / open_gop=0 / weightp=2 / keyint=240 / keyint_min=24 / scenecut=40 / intra_refresh=0 / rc_lookahead=40 / rc=2pass / mbtree=1 / bitrate=1303 / ratetol=1.0 / qcomp=0.60 / qpmin=0 / qpmax=69 / qpstep=4 / cplxblur=20.0 / qblur=0.5 / vbv_maxrate=20000 / vbv_bufsize=25000 / nal_hrd=none / filler=0 / ip_ratio=1.40 / aq=1:1.00

Default : Yes

Forced : No

Color range : Limited

Color primaries : BT.601 NTSC

Transfer characteristics : BT.709

Matrix coefficients : BT.601


Audio

ID : 2

Format : AAC

Format/Info : Advanced Audio Codec

Format profile : LC

Codec ID : A_AAC

Duration : 2 h 19 min

Bit rate : 96.0 kb/s

Channel(s) : 2 channels

Channel positions : Front: L R

Sampling rate : 48.0 kHz

Frame rate : 46.875 FPS (1024 spf)

Compression mode : Lossy

Stream size : 95.1 MiB (7%)

Title : www.MovCr.com

Language : Malayalam

Default : Yes

Forced : No


Text

ID : 3

Format : UTF-8

Codec ID : S_TEXT/UTF8

Codec ID/Info : UTF-8 Plain Text

Duration : 2 h 15 min

Bit rate : 61 b/s

Count of elements : 1704

Stream size : 60.7 KiB (0%)

Title : www.MovCr.com

Default : Yes

Forced : No




SCREENSHOTSCREENSHOTSCREENSHOT


Torrent location

http://www.1337x.to/torrent/3052314/Kuttanadan-Marpappa-2018-Malayalam-720p-DVDRip-x264-1-4GB-AAC-5-1-ESub-MovCr/

Trackers

Refresh Leechers : Updated June 13, 2018

1. udp://9.rarbg.com:2710/announce

2. udp://tracker.opentrackr.org:1337/announce

3. udp://tracker.pirateparty.gr:6969/announce

4. udp://tracker.leechers-paradise.org:6969/announce

5. udp://tracker.coppersurfer.tk:6969/announce

6. udp://tracker.zer0day.to:1337/announce

Comments

You must log in to add a comment.

Embed Code

Sharing Widget

Top Movies ( auto generated report )

FILENAME SIZE SEEDS PEERS ADDED UPD
[i] Rampage (2018) [WEBRip] [720p] [YTS AM] 924.3 MB 12877 8865 4 days 22 hours
[i] Rampage (2018) [WEBRip] [1080p] [YTS AM] 1.73 GB 11810 9729 4 days 3 days
[i] Ready Player One (2018) [WEBRip] [1080p] [YTS AM] 2.24 GB 10162 5063 4 days 1 day
[i] Ready Player One (2018) [WEBRip] [720p] [YTS AM] 1.16 GB 9167 6479 4 days 3 days
[i] Blockers (2018) [WEBRip] [720p] [YTS AM] 861.94 MB 3014 1665 2 days 10 hours
[i] Life of the Party (2018) [WEBRip] [720p] [YTS AM] 886.77 MB 3245 2104 4 days 3 days
[i] Isle of Dogs (2018) [WEBRip] [1080p] [YTS AM] 1.55 GB 2561 854 2 days 1 day
[i] Blockers (2018) [WEBRip] [1080p] [YTS AM] 1.62 GB 2549 1065 2 days 1 day
[i] The Death of Superman (2018) [WEBRip] [720p] [YTS AM] 690.36 MB 2300 1288 4 days 3 days
[i] Beirut (2018) [WEBRip] [720p] [YTS AM] 929.6 MB 1445 437 6 days 9 hours