Laavaan Phere (2018) Punjabi 720p HDTV x264 AAC 1GB [MovCr]

DOWNLOAD ( MAGNET LINK ) DOWNLOAD Watch Online

Posted on June 13, 2018 in Movies » Misc

Size: 979.6 MB , Seeds: 1 , Peers: 2 ( Updated June 13, 2018 - Refresh )

* Download via Magnet Link , * To download files you need a Bittorrent Client , * How to download torrents from Bit Torrent Scene?

Scrape History ( seeds + peers )

Internal Files

Laavaan Phere (2018) Punjabi 720p HDTV x264 AAC 1GB [MovCr]
www.MovCr.com-Laavaan Phere   2018) Punjabi 720p HDTV x264 AAC 1GB [MovCr].mkv (979.6 MB

Hash Code

b0e98eae60ec934d6cb5920cc0dfa58c7ffa7e69

Description

www.movcr.com

http://www.imdb.com/title/tt7897324/

SCREENSHOT

General

Unique ID : 96340213791651062039518731613529958421 (0x487A73442C839206EBD8B29A6433E815)

Complete name : www.MovCr.com-Laavaan Phere (2018) Punjabi 720p HDTV x264 AAC 1GB [MovCr].mkv

Format : Matroska

Format version : Version 4 / Version 2

File size : 980 MiB

Duration : 2 h 3 min

Overall bit rate : 1 108 kb/s

Movie name : www.MovCr.com

Encoded date : UTC 2018-06-13 05:49:40

Writing application : mkvmerge v23.0.0 ('The Bride Said No') 64-bit

Writing library : libebml v1.3.6 + libmatroska v1.4.9


Video

ID : 1

Format : AVC

Format/Info : Advanced Video Codec

Format profile : [email protected]
Format settings, CABAC : Yes

Format settings, ReFrames : 8 frames

Codec ID : V_MPEG4/ISO/AVC

Duration : 2 h 3 min

Bit rate : 1 000 kb/s

Width : 1 280 pixels

Height : 720 pixels

Display aspect ratio : 16:9

Frame rate mode : Constant

Frame rate : 25.000 FPS

Color space : YUV

Chroma subsampling : 4:2:0

Bit depth : 8 bits

Scan type : Progressive

Bits/(Pixel*Frame) : 0.043

Stream size : 893 MiB (91%)

Title : www.MovCr.com

Writing library : x264 core 142 r2479 dd79a61

Encoding settings : cabac=1 / ref=8 / deblock=0:0:0 / analyse=0x3:0 / me=umh / subme=9 / psy=1 / psy_rd=1.00:0.00 / mixed_ref=0 / me_range=16 / chroma_me=1 / trellis=2 / 8x8dct=1 / cqm=0 / deadzone=21,11 / fast_pskip=1 / chroma_qp_offset=-2 / threads=48 / lookahead_threads=4 / sliced_threads=0 / nr=0 / decimate=1 / interlaced=0 / bluray_compat=0 / constrained_intra=0 / bframes=8 / b_pyramid=2 / b_adapt=1 / b_bias=0 / direct=1 / weightb=1 / open_gop=0 / weightp=2 / keyint=250 / keyint_min=25 / scenecut=0 / intra_refresh=0 / rc_lookahead=0 / rc=abr / mbtree=0 / bitrate=1000 / ratetol=1.0 / qcomp=0.60 / qpmin=0 / qpmax=69 / qpstep=4 / vbv_maxrate=50000 / vbv_bufsize=62500 / nal_hrd=none / filler=0 / ip_ratio=1.40 / pb_ratio=1.30 / aq=0

Default : Yes

Forced : No

Color range : Limited

Color primaries : BT.601 PAL

Transfer characteristics : BT.709

Matrix coefficients : BT.601


Audio

ID : 2

Format : AAC

Format/Info : Advanced Audio Codec

Format profile : HE-AAC / LC

Codec ID : A_AAC

Duration : 2 h 3 min

Bit rate : 96.0 kb/s

Channel(s) : 2 channels

Channel positions : Front: L R

Sampling rate : 48.0 kHz / 24.0 kHz

Frame rate : 23.438 FPS (1024 spf)

Compression mode : Lossy

Delay relative to video : -105 ms

Stream size : 84.9 MiB (9%)

Title : www.MovCr.com

Default : Yes

Forced : No




SCREENSHOT
SCREENSHOT
SCREENSHOT
SCREENSHOT
SCREENSHOT
SCREENSHOT
SCREENSHOT

Torrent location

http://www.1337x.to/torrent/3051843/Laavaan-Phere-2018-Punjabi-720p-HDTV-x264-AAC-1GB-MovCr/

Trackers

Refresh Leechers : Updated June 13, 2018

1. udp://9.rarbg.com:2710/announce

2. udp://tracker.opentrackr.org:1337/announce

3. udp://tracker.pirateparty.gr:6969/announce

4. udp://tracker.leechers-paradise.org:6969/announce

5. udp://tracker.coppersurfer.tk:6969/announce

6. udp://tracker.zer0day.to:1337/announce

Comments

You must log in to add a comment.

Embed Code

Sharing Widget

Related torrents

FILENAME SIZE SEEDS PEERS ADDED UPD
[i] downloadhub in Laavaan Phere (2018) Punjabi 720p DTHRip x264 AAC - Downloadhub
posted by downloadhub in Movies - Comedy
970.76 MB 36 17 1 week 2 days

Top Movies ( auto generated report )

FILENAME SIZE SEEDS PEERS ADDED UPD
[i] Rampage (2018) [WEBRip] [720p] [YTS AM] 924.3 MB 13992 12685 2 days 1 day
[i] Rampage (2018) [WEBRip] [1080p] [YTS AM] 1.73 GB 11810 9729 2 days 1 day
[i] Ready Player One (2018) [WEBRip] [1080p] [YTS AM] 2.24 GB 10675 6116 2 days 1 day
[i] Ready Player One (2018) [WEBRip] [720p] [YTS AM] 1.16 GB 9167 6479 2 days 1 day
[i] Escape Plan 2 Hades (2018) [BluRay] [720p] [YTS AM] 821.12 MB 6877 4793 4 days 3 days
[i] Escape Plan 2 Hades (2018) [BluRay] [1080p] [YTS AM] 1.52 GB 4347 2178 4 days 3 days
[i] Blockers (2018) [WEBRip] [720p] [YTS AM] 861.94 MB 3951 4566 1 hour 1 hour
[i] Life of the Party (2018) [WEBRip] [720p] [YTS AM] 886.77 MB 3245 2104 2 days 1 day
[i] Blockers (2018) [WEBRip] [1080p] [YTS AM] 1.62 GB 2698 2320 1 hour 1 hour
[i] The Death of Superman (2018) [WEBRip] [720p] [YTS AM] 690.36 MB 2300 1288 2 days 1 day