Manifesting The Mind - Psychedelics & Shamanism

Posted on June 13, 2018 in Movies » Documentary

Size: 698.6 MB , Seeds: 0 , Peers: 0 ( Updated June 13, 2018 - Refresh )

Could not find any peer statistics from any torrent tracker.
This does not mean the torrent is dead.

* Download via Magnet Link , * To download files you need a Bittorrent Client , * How to download torrents from Bit Torrent Scene?

Scrape History ( seeds + peers )

Internal Files

Manifesting The Mind - Psychedelics & Shamanism
Manifesting the Mind.avi   698.6 MB

Torrent_downloaded_from_1337x.to.txt   0.0 KB

Torrent_downloaded_from_Demonoid_-_www.demonoid.pw_.txt   0.1 KB

Hash Code

7cb9049fba25c8a41afcd6ca72ec650f535b1709

Description

SCREENSHOT

Manifesting The Mind, a documentary on Psychedelics & Shamanism from 'Bouncing Bear Films' featuring interviews with renowned experts such as Daniel Pinchbeck, John Major Jenkins, Dennis McKenna, Nick Herbert, Alex Grey & Dr. Rick Strassman to name a few. This is the first release from Bouncing Bear Films which comprises of Andrew & Jennifer Rutajit and all other folks from Bouncing Bear Botanicals. 'Manifesting The Mind' gives us a broad perspective on psychedelics, how we can benefit from them and why the use of psychedelics is suppressed by the mainstream media and governments of the world.


General
Format                                  : AVI

Format/Info                           : Audio Video Interleave

File size                                : 699 MiB

Duration                                : 2 h 2 min

Overall bit rate mode            : Variable

Overall bit rate                      : 797 kb/s


Video
Format                                 : MPEG-4 Visual

Format profile                      : Advanced [email protected]
Codec ID                              : XVID

Duration                               : 2 h 2 min

Bit rate                                 : 672 kb/s

Width                                   : 560 pixels

Height                                  : 336 pixels

Display aspect ratio             : 5:3

Frame rate                           : 29.970 (30000/1001) FPS

Color space                         : YUV

Chroma subsampling           : 4:2:0

Bit depth                               : 8 bits

Scan type                             : Progressive

Compression mode              : Lossy

Bits/(Pixel*Frame)                : 0.119

Stream size                          : 589 MiB (84%)

Writing library                       : XviD 1.2.1 (UTC 2008-12-04)


Audio
Format                                  : MPEG Audio

Format version                     : Version 1

Format profile                       : Layer 3

Format settings                    : Joint stereo

Duration                                : 2 h 2 min

Bit rate mode                        : Variable

Bit rate                                  : 112 kb/s

Nominal bit rate                    : 128 kb/s

Channel(s)                            : 2 channels

Sampling rate                       : 48.0 kHz

Frame rate                            : 41.667 FPS (1152 SPF)

Compression mode              : Lossy

Stream size                           : 97.7 MiB (14%)

Alignment                              : Aligned on interleaves

Language                              : English

Torrent location

http://www.1337x.to/torrent/3051859/Manifesting-The-Mind-Psychedelics-Shamanism/

Trackers

Refresh Leechers : Updated June 13, 2018

1. udp://9.rarbg.com:2710/announce

2. udp://tracker.opentrackr.org:1337/announce

3. udp://tracker.pirateparty.gr:6969/announce

4. udp://tracker.leechers-paradise.org:6969/announce

5. udp://tracker.coppersurfer.tk:6969/announce

6. udp://tracker.zer0day.to:1337/announce

Comments

You must log in to add a comment.

Embed Code

Sharing Widget

Top Movies ( auto generated report )

FILENAME SIZE SEEDS PEERS ADDED UPD
[i] Rampage (2018) [WEBRip] [720p] [YTS AM] 924.3 MB 12877 8865 3 days 6 hours
[i] Rampage (2018) [WEBRip] [1080p] [YTS AM] 1.73 GB 11810 9729 3 days 2 days
[i] Ready Player One (2018) [WEBRip] [1080p] [YTS AM] 2.24 GB 10162 5063 3 days 1 day
[i] Ready Player One (2018) [WEBRip] [720p] [YTS AM] 1.16 GB 9167 6479 3 days 2 days
[i] Blockers (2018) [WEBRip] [720p] [YTS AM] 861.94 MB 3817 2346 1 day 20 hours
[i] Life of the Party (2018) [WEBRip] [720p] [YTS AM] 886.77 MB 3245 2104 3 days 2 days
[i] Isle of Dogs (2018) [WEBRip] [1080p] [YTS AM] 1.55 GB 2561 854 1 day 20 hours
[i] Blockers (2018) [WEBRip] [1080p] [YTS AM] 1.62 GB 2549 1065 1 day 20 hours
[i] The Death of Superman (2018) [WEBRip] [720p] [YTS AM] 690.36 MB 2300 1288 3 days 2 days
[i] Beirut (2018) [WEBRip] [720p] [YTS AM] 929.6 MB 2164 1197 5 days 4 days