Our Girl S04E02 Nigeria Tour Episode 2 revittony

DOWNLOAD TORRENT DOWNLOAD Watch Online

Posted by revittony •422 on June 13, 2018 in Series » Misc , verified torrent

Size: 651.63 MB , Seeds: 7 , Peers: 3 ( Updated June 19, 2018 - Refresh )

* Download via Magnet Link , * To download files you need a Bittorrent Client , * How to download torrents from Bit Torrent Scene?

Scrape History ( seeds + peers )

Internal Files

Our Girl S04E02 Nigeria Tour Episode 2.mp4
Our Girl S04E02 Nigeria Tour Episode 2.mp4   651.63 MB

Hash Code

48889a03a353fbc4944b94a24cc6b9761c8d9535

Description

Format : MPEG-4
Format profile : Base Media
Codec ID : isom (isom/iso2/avc1/mp41)
Overall bit rate mode : Variable
Overall bit rate : 1 663 kb/s


Video
ID : 1
Format : AVC
Format/Info : Advanced Video Codec
Format profile : [email protected]
Format settings : CABAC / 4 Ref Frames
Format settings, CABAC : Yes
Format settings, RefFrames : 4 frames
Format settings, GOP : M=8, N=96
Codec ID : avc1
Codec ID/Info : Advanced Video Coding
Duration : 57 min 43 s
Bit rate : 1 564 kb/s
Width : 960 pixels
Height : 540 pixels
Display aspect ratio : 16:9
Frame rate mode : Constant
Frame rate : 25.000 FPS
Color space : YUV
Chroma subsampling : 4:2:0
Bit depth : 8 bits
Scan type : Progressive
Bits/(Pixel*Frame) : 0.121
Stream size : 646 MiB (94%)
Color range : Limited
Color primaries : BT.709
Transfer characteristics : BT.709
Matrix coefficients : BT.709

Audio
ID : 2
Format : AAC
Format/Info : Advanced Audio Codec
Format profile : HE-AAC / LC
Format settings : Implicit
Codec ID : mp4a-40-2
Duration : 57 min 43 s
Bit rate mode : Variable
Bit rate : 96.0 kb/s
Maximum bit rate : 101 kb/s
Channel(s) : 2 channels
Channel positions : Front: L R
Sampling rate : 48.0 kHz / 24.0 kHz
Frame rate : 23.438 FPS (1024 SPF)
Compression mode : Lossy
Stream size : 39.1 MiB (6%)
Language : English
Default : Yes
Alternate group : 1

Trackers

Refresh Leechers : Updated June 19, 2018

1. udp://tracker.coppersurfer.tk:6969/announce

2. udp://tracker.zer0day.to:1337/announce

3. udp://tracker.leechers-paradise.org:6969

Comments

You must log in to add a comment.

Embed Code

Sharing Widget

Top Series ( auto generated report )

FILENAME SIZE SEEDS PEERS ADDED UPD
[i] Westworld.S02E09.720p.WEB.H264-DEFLATE [rarbg] 1.8 GB 1919 546 3 days 3 days
[i] RuPauls.Drag.Race.S10E12.WOWRip.1080p-WEBRip 2 GB 1401 386 5 days 5 days
[i] Supergirl.S03E23.HDTV.x264-KILLERS[ettv] 285.8 MB 969 349 2 days 1 day
[i] Last.Week.Tonight.With.John.Oliver.S05E15.720p.HDTV.X264-UAV [rarbg] 701.5 MB 845 134 3 days 3 days
[i] Westworld.S02E09.1080p.WEB.H264-DEFLATE [rarbg] 5.3 GB 824 423 3 days 3 days
[i] Elementary.S06E08.720p.HDTV.X264-DIMENSION [rarbg] 776.7 MB 477 56 1 day 1 day
[i] 12.Monkeys.S04E01.HDTV.x264-KILLERS[ettv] 256.51 MB 473 58 5 days 4 days
[i] The.Handmaids.Tale.S02E10.400p.ScrnCapWeb.x264-][ The Last mp4 302.38 MB 451 135 21 hours 19 hours
[i] RuPauls.Drag.Race.Untucked.S09E12.WOWRip.1080p-WEBRip 663.2 MB 397 53 5 days 5 days
[i] RuPauls.Drag.Race.S10E12.WEBRip.360p-WOWRip 280.6 MB 384 26 5 days 5 days