Patrick Melrose S01 Complete 720p AMZN WEB-DL [AR Sub]

DOWNLOAD ( MAGNET LINK ) DOWNLOAD Watch Online

Posted by SisouNet •4 on June 13, 2018 in Series » Misc

Size: 2.44 GB , Seeds: 5 , Peers: 6 ( Updated June 17, 2018 )

* Download via Magnet Link , * To download files you need a Bittorrent Client , * How to download torrents from Bit Torrent Scene?

Scrape History ( seeds + peers )

Internal Files

Patrick Melrose S01 Complete 720p AMZN WEB-DL [AR.Sub]
patrick-melrose.111965.jpg   642.69 KB
Patrick.Melrose.S01E04.Mothers.Milk.720p.AMZN.WEB-DL.x264.mp4   484.75 MB
Patrick.Melrose.S01E03.Some.Hope.720p.AMZN.WEB-DL.x264.mp4   485.77 MB
Patrick.Melrose.S01E05.At.Last.720p.AMZN.WEB-DL.x264.Final.mp4   497.95 MB
Patrick.Melrose.S01E02.Never.Mind.720p.AMZN.WEB-DL.x264.mp4   504.1 MB
Patrick.Melrose.S01E01.Patrick.Melrose.Bad.News.720p.AMZN.WEB-DL.x264.mp4   528.56 MB

Hash Code

0b1b67ce71a35a7a9ee738eea753c51d511c4430

Description

Patrick Melrose S01 Complete 720p AMZN WEB-DL [AR Sub]

SCREENSHOT

General
Complete name :Patrick.Melrose.S01E01.Patrick.Melrose.Bad.News.720p.AMZN.WEB-DL.x264.mp4
Format : MPEG-4
Format profile : Base Media
Codec ID : isom (isom/iso2/avc1/mp41)
File size : 529 MiB
Duration : 1 h 3 min
Overall bit rate : 1 158 kb/s
Recorded date : 0
Writing application : Lavf56.36.100

Video
ID : 1
Format : AVC
Format/Info : Advanced Video Codec
Format profile : [email protected]
Format settings : 2 Ref Frames
Format settings, CABAC : No
Format settings, ReFrames : 2 frames
Codec ID : avc1
Codec ID/Info : Advanced Video Coding
Duration : 1 h 3 min
Bit rate : 1 024 kb/s
Width : 1 280 pixels
Height : 640 pixels
Display aspect ratio : 2.000
Frame rate mode : Constant
Frame rate : 25.000 FPS
Color space : YUV
Chroma subsampling : 4:2:0
Bit depth : 8 bits
Scan type : Progressive
Bits/(Pixel*Frame) : 0.050
Stream size : 468 MiB (88%)
Writing library : x264 core 148 r2579 73ae2d1
Encoding settings : cabac=0 / ref=2 / deblock=1:0:0 / analyse=0x1:0x111 / me=umh / subme=6 / psy=1 / psy_rd=1.00:0.00 / mixed_ref=1 / me_range=16 / chroma_me=1 / trellis=0 / 8x8dct=0 / cqm=0 / deadzone=21,11 / fast_pskip=1 / chroma_qp_offset=-2 / threads=4 / lookahead_threads=1 / sliced_threads=0 / nr=0 / decimate=1 / interlaced=0 / bluray_compat=0 / constrained_intra=0 / bframes=0 / weightp=0 / keyint=250 / keyint_min=25 / scenecut=40 / intra_refresh=0 / rc_lookahead=40 / rc=abr / mbtree=1 / bitrate=1024 / ratetol=1.0 / qcomp=0.60 / qpmin=0 / qpmax=69 / qpstep=4 / ip_ratio=1.40 / aq=1:1.00

Audio
ID : 2
Format : AAC
Format/Info : Advanced Audio Codec
Format profile : LC
Codec ID : mp4a-40-2
Duration : 1 h 3 min
Bit rate mode : Constant
Bit rate : 128 kb/s
Channel(s) : 2 channels
Channel positions : Front: L R
Sampling rate : 44.1 kHz
Frame rate : 43.066 FPS (1024 SPF)
Compression mode : Lossy
Stream size : 58.4 MiB (11%)
Language : English
Default : Yes
Alternate group : 1

Comments

You must log in to add a comment.

Embed Code

Sharing Widget

Top Series ( auto generated report )

FILENAME SIZE SEEDS PEERS ADDED UPD
[i] Marvels.Cloak.and.Dagger.S01E03.WEB.x264-TBS[ettv] 326.2 MB 2017 421 3 days 2 days
[i] RuPauls.Drag.Race.S10E12.WOWRip.1080p-WEBRip 2 GB 1401 386 2 days 2 days
[i] Condor.S01E02.WEBRip.x264-PBS[ettv] 300.21 MB 857 130 3 days 2 days
[i] Legion.S02E11.720p.HDTV.x264-AVS[rarbg] 1.4 GB 773 108 4 days 4 days
[i] Strange.Angel.S01E01.WEBRip.x264-TBS[ettv] 324.67 MB 723 157 3 days 2 days
[i] Supergirl.S03E22.HDTV.x264-SVA[rarbg] 276.1 MB 705 70 5 days 5 days
[i] Legion.S02E11.HDTV.x264-SVA[rarbg] 299.4 MB 677 75 4 days 4 days
[i] Supergirl.S03E22.720p.HDTV.x264-SVA[rarbg] 899.6 MB 566 90 5 days 5 days
[i] 12.Monkeys.S04E01.HDTV.x264-KILLERS[ettv] 256.51 MB 473 58 2 days 1 day
[i] Humans.S03E05.HDTV.x264-MTB[ettv] 232.26 MB 455 67 3 days 2 days