Richie (2018) Hindi WEB-HD - 720p - AVC - AAC - 600MB [MovCr]

Posted on June 13, 2018 in Movies » Misc

Size: 581.9 MB , Seeds: 4 , Peers: 21 ( Updated June 13, 2018 - Refresh )

* Download via Magnet Link , * To download files you need a Bittorrent Client , * How to download torrents from Bit Torrent Scene?

Scrape History ( seeds + peers )

Internal Files

Richie (2018) Hindi WEB-HD - 720p - AVC - AAC - 600MB [MovCr]
www.MovCr.com - Richie   2018) Hindi WEB-HD - 720p - AVC - AAC - 600MB [MovCr].mkv (581.9 MB

Hash Code

074bebe53488c86f59f4b0690ff3f24447cc3c34

Description

www.movcr.com

http://www.imdb.com/title/tt7297586/

SCREENSHOT

General

Unique ID : 221496503501859928219669878868803595236 (0xA6A2ACC4179E55BB243AE0406B202BE4)

Complete name : www.MovCr.com - Richie (2018) Hindi WEB-HD - 720p - AVC - AAC - 600MB [MovCr].mkv

Format : Matroska

Format version : Version 4 / Version 2

File size : 582 MiB

Duration : 1 h 38 min

Overall bit rate : 828 kb/s

Movie name : www.MovCr.com

Encoded date : UTC 2018-06-13 05:28:52

Writing application : mkvmerge v23.0.0 ('The Bride Said No') 64-bit

Writing library : libebml v1.3.6 + libmatroska v1.4.9


Video

ID : 1

Format : AVC

Format/Info : Advanced Video Codec

Format profile : [email protected]
Format settings, CABAC : Yes

Format settings, ReFrames : 3 frames

Codec ID : V_MPEG4/ISO/AVC

Duration : 1 h 38 min

Bit rate : 700 kb/s

Width : 1 280 pixels

Height : 720 pixels

Display aspect ratio : 16:9

Frame rate mode : Constant

Frame rate : 25.000 FPS

Color space : YUV

Chroma subsampling : 4:2:0

Bit depth : 8 bits

Scan type : Progressive

Bits/(Pixel*Frame) : 0.030

Stream size : 492 MiB (85%)

Title : www.MovCr.com

Default : Yes

Forced : No

Color range : Limited

Color primaries : BT.709

Transfer characteristics : BT.709

Matrix coefficients : BT.709


Audio

ID : 2

Format : AAC

Format/Info : Advanced Audio Codec

Format profile : LC

Codec ID : A_AAC

Duration : 1 h 38 min

Bit rate : 126 kb/s

Channel(s) : 2 channels

Channel positions : Front: L R

Sampling rate : 44.1 kHz

Frame rate : 43.066 FPS (1024 spf)

Compression mode : Lossy

Stream size : 88.3 MiB (15%)

Title : www.MovCr.com

Language : Hindi

Default : Yes

Forced : No




SCREENSHOT
SCREENSHOT
SCREENSHOT
SCREENSHOT
SCREENSHOT
SCREENSHOT

Torrent location

http://www.1337x.to/torrent/3051819/Richie-2018-Hindi-WEB-HD-720p-AVC-AAC-600MB-MovCr/

Trackers

Refresh Leechers : Updated June 13, 2018

1. udp://9.rarbg.com:2710/announce

2. udp://tracker.opentrackr.org:1337/announce

3. udp://tracker.pirateparty.gr:6969/announce

4. udp://tracker.leechers-paradise.org:6969/announce

5. udp://tracker.coppersurfer.tk:6969/announce

6. udp://tracker.zer0day.to:1337/announce

Comments

You must log in to add a comment.

Embed Code

Sharing Widget

Related torrents

FILENAME SIZE SEEDS PEERS ADDED UPD
[i] Richie (2018) Hindi Dubbed 720p HD x264 AAC 850MB [MOVCR] mp4
posted by Tamilgun in Movies - Drama
856.13 MB 30 9 1 week 4 days
[i] Richie Rich - (1994) - DVDRip [Dual-Audio] [English-Hindi] By Ma 534.3 MB 1 1 6 years 1 year

Top Movies ( auto generated report )

FILENAME SIZE SEEDS PEERS ADDED UPD
[i] Rampage (2018) [WEBRip] [720p] [YTS AM] 924.3 MB 12877 8865 4 days 22 hours
[i] Rampage (2018) [WEBRip] [1080p] [YTS AM] 1.73 GB 11810 9729 4 days 3 days
[i] Ready Player One (2018) [WEBRip] [1080p] [YTS AM] 2.24 GB 10162 5063 4 days 1 day
[i] Ready Player One (2018) [WEBRip] [720p] [YTS AM] 1.16 GB 9167 6479 4 days 3 days
[i] Blockers (2018) [WEBRip] [720p] [YTS AM] 861.94 MB 3014 1665 2 days 10 hours
[i] Life of the Party (2018) [WEBRip] [720p] [YTS AM] 886.77 MB 3245 2104 4 days 3 days
[i] Isle of Dogs (2018) [WEBRip] [1080p] [YTS AM] 1.55 GB 2561 854 2 days 1 day
[i] Blockers (2018) [WEBRip] [1080p] [YTS AM] 1.62 GB 2549 1065 2 days 1 day
[i] The Death of Superman (2018) [WEBRip] [720p] [YTS AM] 690.36 MB 2300 1288 4 days 3 days
[i] Beirut (2018) [WEBRip] [720p] [YTS AM] 929.6 MB 1445 437 6 days 9 hours