Vikram Vedha (2018 x264 720p HD 5.1 Hindi GOPISAHI

Posted on June 13, 2018 in Movies » Misc

Size: 641.7 MB , Seeds: 1 , Peers: 17 ( Updated June 13, 2018 - Refresh )

* Download via Magnet Link , * To download files you need a Bittorrent Client , * How to download torrents from Bit Torrent Scene?

Scrape History ( seeds + peers )

Internal Files

Vikram Vedha (2018 x264 720p HD 5.1 Hindi GOPISAHI
Vikram Vedha   2018 x264 720p HD 5.1 Hindi GOPISAHI.mkv (641.7 MB

Hash Code

c8c8d3c939b6609fd224fc521d9d599715fbf115

Description

http://www.gopisahi.pw/
SCREENSHOT
Format : Matroska

Format version : Version 4 / Version 2

File size : 642 MiB

Duration : 2 h 10 min

Overall bit rate : 689 kb/s

Movie name : Vikram Vedha 2018 GOPISAHI


Video

Format : AVC

Codec ID : V_MPEG4/ISO/AVC

Duration : 2 h 10 min

Bit rate : 600 kb/s

Width : 1 280 pixels

Height : 544 pixels

Display aspect ratio : 2.35:1

Frame rate mode : Constant

Frame rate : 25.000 FPS

Color space : YUV

Chroma subsampling : 4:2:0

Bit depth : 8 bits

Scan type : Progressive

Bits/(Pixel*Frame) : 0.034

Stream size : 559 MiB (87%)

Title : GOPISAHI

Writing library : x264 core 155 r2893 b00bcaf


Audio

Format : AAC

Duration : 2 h 10 min

Bit rate : 86.7 kb/s

Channel(s) : 6 channels

Channel positions : Front: L C R, Side: L R, LFE

Sampling rate : 44.1 kHz

Frame rate : 43.066 FPS (1024 SPF)

Compression mode : Lossy

Stream size : 80.8 MiB (13%)

Title : GOPISAHI

Language : Hindi

SCREENSHOT
SCREENSHOT
SCREENSHOT

Torrent location

http://www.1337x.to/torrent/3051734/Vikram-Vedha-2018-x264-720p-HD-5-1-Hindi-GOPISAHI/

Trackers

Refresh Leechers : Updated June 13, 2018

1. udp://9.rarbg.com:2710/announce

2. udp://tracker.opentrackr.org:1337/announce

3. udp://tracker.pirateparty.gr:6969/announce

4. udp://tracker.leechers-paradise.org:6969/announce

5. udp://tracker.coppersurfer.tk:6969/announce

6. udp://tracker.zer0day.to:1337/announce

Comments

You must log in to add a comment.

Embed Code

Sharing Widget

Top Movies ( auto generated report )

FILENAME SIZE SEEDS PEERS ADDED UPD
[i] Rampage (2018) [WEBRip] [720p] [YTS AM] 924.3 MB 12877 8865 3 days 6 hours
[i] Rampage (2018) [WEBRip] [1080p] [YTS AM] 1.73 GB 11810 9729 3 days 2 days
[i] Ready Player One (2018) [WEBRip] [1080p] [YTS AM] 2.24 GB 10162 5063 3 days 1 day
[i] Ready Player One (2018) [WEBRip] [720p] [YTS AM] 1.16 GB 9167 6479 3 days 2 days
[i] Blockers (2018) [WEBRip] [720p] [YTS AM] 861.94 MB 3817 2346 1 day 20 hours
[i] Life of the Party (2018) [WEBRip] [720p] [YTS AM] 886.77 MB 3245 2104 3 days 2 days
[i] Isle of Dogs (2018) [WEBRip] [1080p] [YTS AM] 1.55 GB 2561 854 1 day 20 hours
[i] Blockers (2018) [WEBRip] [1080p] [YTS AM] 1.62 GB 2549 1065 1 day 20 hours
[i] The Death of Superman (2018) [WEBRip] [720p] [YTS AM] 690.36 MB 2300 1288 3 days 2 days
[i] Beirut (2018) [WEBRip] [720p] [YTS AM] 929.6 MB 2164 1197 5 days 4 days